The Kids Are All... (2010) | Die Hexen von Eastwick | thriller movies
extratorrent - A Fan Made Alternative Login   |   Register
Important Information
Registrations are open now
-------------------------------------

Please click here to register with Extratorrent2 to recieve latest updates, add bookmarks and to post comments.

Friends
Friends

1) ProxyFix

Extratorrent2 > Categories > Movies > [email protected] torrent


Browse Movies torrents

[email protected] torrent


Download torrent: Download Incredibles.2.2018.1080p.WEB-DL.DD5.1.x264-iM@X torrent Magnet link Bookmark Torrent: Incredibles.2.2018.1080p.WEB-DL.DD5.1.x264-iM@X   [email protected] torrent
Info hash: C65BF64DE87066748DC2E6DCB7998A3D67E18525
Category: Categories > Movies
Trackers:
View all torrent trackers >
Health:
 seeds: 7 ,  leechers: 5 |  Update >
Torrent language: English English
Total Size: 1.8 GB
Files List:
2    View torrent files >
Uploader:
iMaX100
Torrent added: October 30, 2018, 4:31 am
Tags: Animation, Action, Adventure, Comedy, Family, Sci-Fi
Users rating: ---, not rated. please login to rate.

Download Incredibles.2.2018.1080p.WEB-DL.DD5.1.x264-iM@X torrent



Torrent Description

Language: English

Genre: Animation | Action | Adventure | Comedy | Family | Sci-Fi

Bob Parr (Mr. Incredible) is left to care for Jack-Jack while Helen (Elastigirl) is out saving the world.





Code:

Format : Matroska
Format version : Version 4 / Version 2
File size : 1.80 GiB
Duration : 1 h 57 min
Overall bit rate : 2 184 kb/s
Movie name : www.MOVEY.CC
Encoded date : UTC 2018-10-22 21:30:22
Writing application : mkvmerge v19.0.0 ('Brave Captain') 64-bit
Writing library : libebml v1.3.5 + libmatroska v1.4.8

Video
ID : 1
Format : AVC
Format/Info : Advanced Video Codec
Format profile :
Format settings : CABAC / 4 Ref Frames
Format settings, CABAC : Yes
Format settings, RefFrames : 4 frames
Codec ID : V_MPEG4/ISO/AVC
Duration : 1 h 57 min
Bit rate : 1 799 kb/s
Width : 1 920 pixels
Height : 804 pixels
Display aspect ratio : 2.40:1
Frame rate mode : Constant
Frame rate : 23.976 (24000/1001) FPS
Color space : YUV
Chroma subsampling : 4:2:0
Bit depth : 8 bits
Scan type : Progressive
Bits/(Pixel*Frame) : 0.049
Stream size : 1.48 GiB (82%)
Title : www.MOVEY.CC
Writing library : x264 core 155 r2901 7d0ff22
Encoding settings : cabac=1 / ref=3 / deblock=1:-1:-1 / analyse=0x3:0x113 / me=hex / subme=7 / psy=1 / psy_rd=1.00:0.15 / mixed_ref=1 / me_range=16 / chroma_me=1 / trellis=1 / 8x8dct=1 / cqm=0 / deadzone=21,11 / fast_pskip=1 / chroma_qp_offset=-3 / threads=12 / lookahead_threads=2 / sliced_threads=0 / nr=0 / decimate=1 / interlaced=0 / bluray_compat=0 / constrained_intra=0 / bframes=3 / b_pyramid=2 / b_adapt=1 / b_bias=0 / direct=1 / weightb=1 / open_gop=0 / weightp=2 / keyint=240 / keyint_min=23 / scenecut=40 / intra_refresh=0 / rc_lookahead=40 / rc=2pass / mbtree=1 / bitrate=1799 / ratetol=1.0 / qcomp=0.60 / qpmin=0 / qpmax=69 / qpstep=4 / cplxblur=20.0 / qblur=0.5 / ip_ratio=1.40 / aq=1:1.00
Default : Yes
Forced : No

Audio
ID : 2
Format : AC-3
Format/Info : Audio Coding 3
Codec ID : A_AC3
Duration : 1 h 57 min
Bit rate mode : Constant
Bit rate : 384 kb/s
Channel(s) : 6 channels
Channel positions : Front: L C R, Side: L R, LFE
Sampling rate : 48.0 kHz
Frame rate : 31.250 FPS (1536 SPF)
Bit depth : 16 bits
Compression mode : Lossy
Stream size : 324 MiB (18%)
Title : www.MOVEY.CC
Language : English
Service kind : Complete Main
Default : Yes
Forced : No

Text
ID : 3
Format : ASS
Codec ID : S_TEXT/ASS
Codec ID/Info : Advanced Sub Station Alpha
Duration : 5 min 5 s
Bit rate : 2 b/s
Count of elements : 1
Compression mode : Lossless
Stream size : 96.0 Bytes (0%)
Title : www.MOVEY.CC
Default : Yes
Forced : Yes

Download Incredibles.2.2018.1080p.WEB-DL.DD5.1.x264-iM@X torrent


Related Torrents


Comments   (please login to add your comment!)

vixen 2018     pick and choose 2     a woman dream     shameless s09e03     nippleclamps     tranny double anal     cougar     gallo     riddick     beach     game of thrones season     tna impact wrestling     2211     sophia torres anal     rape     aurore omut     tamil untouched     french arab     boss     aris dark publicdisgrace     beach bums     kiara mia     baywatch 2017 720p bluray hindi     trans500     


Home - Browse Torrents

Made with love by an Extratorrent Fan!